Single worms

Segmented Worms the Earthworm

Wide Gap Worm Hook Offset Owner

Bookworm. All Games » Puzzle Games. Help Lex the worm to eat up books by forming words, as long as possible, with the letters scattered on the screen.RENOLIT offers a wide range of synthetic single ply roofing membranes. Our roof systems are used worldwide in new construction and renovation project.

Annelid Worms

Hobbing cutters for multi-start worms. We produce hobbing cutters for multi-start worms in the following designs.Drontal® Plus - The first single-dose combination wormer for dogs: Drontal Plus will quickly and reliably eliminate the intestinal roundworms and tapeworms which.with single-end bottle washing 24,000 to 60,000 bph. Site Worms. KHS GmbH Enzingerstrasse 139 67551 Worms Germany Phone: +49.6247.97 0 E-Mail: info[at]khs.com.Browse Worms men seeking dating at Loveawake.com site. If you are a single female seeking for a single Worms guys then join our free online men dating community in.

Worms and Surrounding area; Single room. Our personalized single rooms accommodates a size of at least 22 sqm.

Yellow-headed Spruce Sawfly

Do bananas get worms? General Questions Straight Dope. Nematodes are the single most speciose group of multicellular organisms on the planet,.

Black Soldier Fly Larvae

Worm Factory 360

Soaptec proposes single worm and tangent twin worms refiners. They usually have single or double refining stage and occasionally three stages.5 Infeed worm 6 Infeed starwheel. with single hand fasteners for quick. Cold-glue labelling station krones Modular labellers The krones cold-glue labelling sta-.

Neon Sour Gummy Worms - Mini: 4.5LB Bag | CandyWarehouse.com Online ...

Prices, history graph and more for the Game "Worms Clan Wars" (RU region).

Human Roundworm Parasites

Drontal® Cat Tablets - The first single-dose combination wormer for cats: Drontal Cat Tablets will control all the intestinal roundworms and tapeworms which commonly.Free to contact single Ukraine women. Post your profile and chat with any single ukrainian woman online. Sending messages to any Ukraine girl is free and not-limited.

Long Range Worm. Home; Products; Hooks; Long Range Worm; SCR38-NEW. View the full image;. Field Tester Mark Turvey reviews Blue Water Single Inline Lures. 9 Aug 2016.Użytkownik GrubyGie - lista trofeów gry Worms Battlegrounds. Sergeant Swift Complete all Worm Ops missions in under 8 total minutes.Worms Dogma - Single version.mp3 Channels: 2 Sample Rate: 44100 Precision: 16-bit Duration: 00:03:33.57 = 9418481 samples = 16017.8 CDDA sectors File Size.Single molecule force spectroscopy with the ForceRobot® 300. as worm-like-chain. Single-molecule force spectroscopy can generate valuable.Anatomy of Polyclad Flatworms. As their name suggests, these free living worms are generally dorso-ventrally flattened being no more than a few millimeters thick.KAUFEN / BUY: 0 Artikel, 0,00 EUR. The Barnshakers Goofin' Records GOOFY 566 Side A: Wiggle Like A Worm SideB: Choo Choo's Coming Back.whisky pages - whisky tasting. Most reputable single malt whiskies are matured for at least eight. A number of distilleries continue to use worm tubs,.

Contact details Dr. Georg Mayer. Onychophora Website. Prof. Dr. Georg. (velvet worms) suggest a single origin and subsequent diversification of visual pigments...

Tiger Worms

The One Worm | JOMC

Single worm PCRs are made by lysing worms in Single Worm Lysis buffer, diluting the lysed worm in PCR water and setting up a PCR reaction with an aliquot of this DNA.HOW TO HOOK: Worms & Caster with Frankie Gianoncelli. you can literally catch 10-15 fish all on a single piece of worm as the worm doesn’t get damaged.Intestinal Nematodes. helminths Protozoa Mulicellular Specialized cells Unicellular Single cell for all function Round worms (Nematodes) cylindrical.

Introduction round trip along the paths of Judaism Mainz, Speyer and Worms constitute the birthplace of Judaism in Europe. Since the High Middle Ages, they have been.Similar to earlier Worms games, the single player campaign features twenty-five missions across five environments: Prehistoric, Viking, Inca, Feudal Japan and.New stainless steel helical and helical bevel gear reducers from SEW-EURODRIVE give food processors efficient. run cooler and last longer than typical single-worm.NORMA Americas Distribution & Industry. 2 NORMA Americas - www.normagroup.com NORMA. pioneered and has been supplying perforated worm-gear clamps to the automotive.

Cabbage Worms Control

What Does Worms Look Like Puppies

Battle of Five Armies The Hobbit Were Worm

Categories. Baby & children Computers & electronics Entertainment & hobby.

Garden Soil Worms

ADVOCATE ® Advocate ® is a so-called endectocide, a single product effective against both, ecto- and endoparasites, like fleas, lice, mites and different types of.